  0
SECTION
  2
HEADER
  9
$ACADVER
  1
AC1012
  9
$DWGCODEPAGE
  3
ANSI_1252
  9
$INSBASE
 10
0.0
 20
0.0
 30
0.0
  9
$EXTMIN
 10
4.587078489112679
 20
3.407554322382932
 30
0.0
  9
$EXTMAX
 10
9.799475140462693
 20
7.882200947089739
 30
0.0
  9
$LIMMIN
 10
0.0
 20
0.0
  9
$LIMMAX
 10
12.0
 20
9.0
  9
$ORTHOMODE
 70
     0
  9
$REGENMODE
 70
     1
  9
$FILLMODE
 70
     1
  9
$QTEXTMODE
 70
     0
  9
$MIRRTEXT
 70
     1
  9
$DRAGMODE
 70
     2
  9
$LTSCALE
 40
1.0
  9
$OSMODE
 70
     0
  9
$ATTMODE
 70
     1
  9
$TEXTSIZE
 40
0.09375
  9
$TRACEWID
 40
0.05
  9
$TEXTSTYLE
  7
STANDARD
  9
$CLAYER
  8
0
  9
$CELTYPE
  6
BYLAYER
  9
$CECOLOR
 62
   256
  9
$CELTSCALE
 40
1.0
  9
$DELOBJ
 70
     1
  9
$DISPSILH
 70
     0
  9
$DIMSCALE
 40
0.5208333333333334
  9
$DIMASZ
 40
0.18
  9
$DIMEXO
 40
0.0625
  9
$DIMDLI
 40
0.38
  9
$DIMRND
 40
0.0
  9
$DIMDLE
 40
0.0
  9
$DIMEXE
 40
0.18
  9
$DIMTP
 40
0.0
  9
$DIMTM
 40
0.0
  9
$DIMTXT
 40
0.18
  9
$DIMCEN
 40
0.09
  9
$DIMTSZ
 40
0.0
  9
$DIMTOL
 70
     0
  9
$DIMLIM
 70
     0
  9
$DIMTIH
 70
     1
  9
$DIMTOH
 70
     1
  9
$DIMSE1
 70
     0
  9
$DIMSE2
 70
     0
  9
$DIMTAD
 70
     0
  9
$DIMZIN
 70
     0
  9
$DIMBLK
  1

  9
$DIMASO
 70
     1
  9
$DIMSHO
 70
     1
  9
$DIMPOST
  1

  9
$DIMAPOST
  1

  9
$DIMALT
 70
     0
  9
$DIMALTD
 70
     2
  9
$DIMALTF
 40
25.4
  9
$DIMLFAC
 40
1.0
  9
$DIMTOFL
 70
     0
  9
$DIMTVP
 40
0.0
  9
$DIMTIX
 70
     0
  9
$DIMSOXD
 70
     0
  9
$DIMSAH
 70
     0
  9
$DIMBLK1
  1

  9
$DIMBLK2
  1

  9
$DIMSTYLE
  2
STANDARD
  9
$DIMCLRD
 70
     0
  9
$DIMCLRE
 70
     0
  9
$DIMCLRT
 70
     0
  9
$DIMTFAC
 40
1.0
  9
$DIMGAP
 40
0.09
  9
$DIMJUST
 70
     0
  9
$DIMSD1
 70
     0
  9
$DIMSD2
 70
     0
  9
$DIMTOLJ
 70
     1
  9
$DIMTZIN
 70
     0
  9
$DIMALTZ
 70
     0
  9
$DIMALTTZ
 70
     0
  9
$DIMFIT
 70
     3
  9
$DIMUPT
 70
     0
  9
$DIMUNIT
 70
     2
  9
$DIMDEC
 70
     2
  9
$DIMTDEC
 70
     2
  9
$DIMALTU
 70
     2
  9
$DIMALTTD
 70
     2
  9
$DIMTXSTY
  7
STANDARD
  9
$DIMAUNIT
 70
     0
  9
$LUNITS
 70
     2
  9
$LUPREC
 70
     4
  9
$SKETCHINC
 40
0.1
  9
$FILLETRAD
 40
0.5
  9
$AUNITS
 70
     0
  9
$AUPREC
 70
     0
  9
$MENU
  1
.
  9
$ELEVATION
 40
0.0
  9
$PELEVATION
 40
0.0
  9
$THICKNESS
 40
0.0
  9
$LIMCHECK
 70
     0
  9
$BLIPMODE
 70
     0
  9
$CHAMFERA
 40
0.5
  9
$CHAMFERB
 40
0.5
  9
$CHAMFERC
 40
1.0
  9
$CHAMFERD
 40
0.0
  9
$SKPOLY
 70
     0
  9
$TDCREATE
 40
2452797.468760798
  9
$TDUPDATE
 40
2452797.471284849
  9
$TDINDWG
 40
0.0025244097
  9
$TDUSRTIMER
 40
0.0025244097
  9
$USRTIMER
 70
     1
  9
$ANGBASE
 50
0.0
  9
$ANGDIR
 70
     0
  9
$PDMODE
 70
     0
  9
$PDSIZE
 40
0.0
  9
$PLINEWID
 40
0.0
  9
$COORDS
 70
     1
  9
$SPLFRAME
 70
     0
  9
$SPLINETYPE
 70
     6
  9
$SPLINESEGS
 70
     8
  9
$ATTDIA
 70
     1
  9
$ATTREQ
 70
     1
  9
$HANDLING
 70
-16383
  9
$HANDSEED
  5
2EB
  9
$SURFTAB1
 70
     6
  9
$SURFTAB2
 70
     6
  9
$SURFTYPE
 70
     6
  9
$SURFU
 70
     6
  9
$SURFV
 70
     6
  9
$UCSNAME
  2

  9
$UCSORG
 10
0.0
 20
0.0
 30
0.0
  9
$UCSXDIR
 10
1.0
 20
0.0
 30
0.0
  9
$UCSYDIR
 10
0.0
 20
1.0
 30
0.0
  9
$PUCSNAME
  2

  9
$PUCSORG
 10
0.0
 20
0.0
 30
0.0
  9
$PUCSXDIR
 10
1.0
 20
0.0
 30
0.0
  9
$PUCSYDIR
 10
0.0
 20
1.0
 30
0.0
  9
$USERI1
 70
     0
  9
$USERI2
 70
     0
  9
$USERI3
 70
     0
  9
$USERI4
 70
     0
  9
$USERI5
 70
     0
  9
$USERR1
 40
0.09375
  9
$USERR2
 40
0.0
  9
$USERR3
 40
0.0
  9
$USERR4
 40
0.0
  9
$USERR5
 40
0.0
  9
$WORLDVIEW
 70
     1
  9
$SHADEDGE
 70
     3
  9
$SHADEDIF
 70
    70
  9
$TILEMODE
 70
     1
  9
$MAXACTVP
 70
    64
  9
$PINSBASE
 10
0.0
 20
0.0
 30
0.0
  9
$PLIMCHECK
 70
     0
  9
$PEXTMIN
 10
1.000000000000000E+20
 20
1.000000000000000E+20
 30
1.000000000000000E+20
  9
$PEXTMAX
 10
-1.000000000000000E+20
 20
-1.000000000000000E+20
 30
-1.000000000000000E+20
  9
$PLIMMIN
 10
0.0
 20
0.0
  9
$PLIMMAX
 10
12.0
 20
9.0
  9
$UNITMODE
 70
     0
  9
$VISRETAIN
 70
     1
  9
$PLINEGEN
 70
     0
  9
$PSLTSCALE
 70
     1
  9
$TREEDEPTH
 70
  3020
  9
$PICKSTYLE
 70
     1
  9
$CMLSTYLE
  2
STANDARD
  9
$CMLJUST
 70
     0
  9
$CMLSCALE
 40
1.0
  9
$SAVEIMAGES
 70
     1
  0
ENDSEC
  0
SECTION
  2
CLASSES
  0
CLASS
  1
ACDBDICTIONARYWDFLT
  2
AcDbDictionaryWithDefault
  3
AutoCAD 2000
 90
    32768
280
     0
281
     0
  0
CLASS
  1
ACDBPLACEHOLDER
  2
AcDbPlaceHolder
  3
AutoCAD 2000
 90
    32768
280
     0
281
     0
  0
CLASS
  1
LAYOUT
  2
AcDbLayout
  3
AutoCAD 2000
 90
    32768
280
     0
281
     0
  0
CLASS
  1
LONG_TRANSACTION
  2
AcDbLongTransaction
  3
AutoCAD 2000
 90
    32768
280
     0
281
     0
  0
CLASS
  1
LWPOLYLINE
  2
AcDbPolyline
  3
AutoCAD 2000
 90
    32768
280
     0
281
     1
  0
CLASS
  1
HATCH
  2
AcDbHatch
  3
AutoCAD 2000
 90
    32768
280
     0
281
     1
  0
CLASS
  1
XRECORD
  2
AcDbXrecord
  3
AutoCAD 2000
 90
    32768
280
     0
281
     0
  0
ENDSEC
  0
SECTION
  2
TABLES
  0
TABLE
  2
VPORT
  5
8
330
0
100
AcDbSymbolTable
 70
     3
  0
VPORT
  5
232
330
8
100
AcDbSymbolTableRecord
100
AcDbViewportTableRecord
  2
*ACTIVE
 70
     0
 10
0.0
 20
0.0
 11
1.0
 21
1.0
 12
7.755100050617389
 22
5.190112120399636
 13
0.0
 23
0.0
 14
0.5
 24
0.5
 15
0.5
 25
0.5
 16
0.0
 26
0.0
 36
1.0
 17
0.0
 27
0.0
 37
0.0
 40
9.966521528414418
 41
1.513903192584963
 42
50.0
 43
0.0
 44
0.0
 50
0.0
 51
0.0
 71
     0
 72
   100
 73
     1
 74
     3
 75
     0
 76
     0
 77
     0
 78
     0
  0
ENDTAB
  0
TABLE
  2
LTYPE
  5
5
330
0
100
AcDbSymbolTable
 70
     1
  0
LTYPE
  5
14
330
5
100
AcDbSymbolTableRecord
100
AcDbLinetypeTableRecord
  2
BYBLOCK
 70
     0
  3

 72
    65
 73
     0
 40
0.0
  0
LTYPE
  5
15
330
5
100
AcDbSymbolTableRecord
100
AcDbLinetypeTableRecord
  2
BYLAYER
 70
     0
  3

 72
    65
 73
     0
 40
0.0
  0
LTYPE
  5
16
330
5
100
AcDbSymbolTableRecord
100
AcDbLinetypeTableRecord
  2
CONTINUOUS
 70
     0
  3
Solid line
 72
    65
 73
     0
 40
0.0
  0
ENDTAB
  0
TABLE
  2
LAYER
  5
2
330
0
100
AcDbSymbolTable
 70
     5
  0
LAYER
  5
10
330
2
100
AcDbSymbolTableRecord
100
AcDbLayerTableRecord
  2
0
 70
     0
 62
     7
  6
CONTINUOUS
  0
LAYER
  5
34
330
2
100
AcDbSymbolTableRecord
100
AcDbLayerTableRecord
  2
L
 70
     0
 62
     7
  6
CONTINUOUS
  0
LAYER
  5
45
330
2
100
AcDbSymbolTableRecord
100
AcDbLayerTableRecord
  2
DEFPOINTS
 70
     0
 62
     7
  6
CONTINUOUS
  0
LAYER
  5
88
330
2
100
AcDbSymbolTableRecord
100
AcDbLayerTableRecord
  2
TX
 70
     0
 62
   150
  6
CONTINUOUS
  0
LAYER
  5
B5
330
2
100
AcDbSymbolTableRecord
100
AcDbLayerTableRecord
  2
MAIN
 70
     0
 62
     7
  6
CONTINUOUS
  0
ENDTAB
  0
TABLE
  2
STYLE
  5
3
330
0
100
AcDbSymbolTable
 70
     3
  0
STYLE
  5
11
330
3
100
AcDbSymbolTableRecord
100
AcDbTextStyleTableRecord
  2
STANDARD
 70
     0
 40
0.0
 41
1.0
 50
0.0
 71
     0
 42
0.09375
  3
txt
  4

  0
STYLE
  5
35
330
3
100
AcDbSymbolTableRecord
100
AcDbTextStyleTableRecord
  2
REG
 70
     0
 40
0.0
 41
1.0
 50
0.0
 71
     0
 42
0.09375
  3
E:\R13\com\fonts\ARCHITXT.SHX
  4

  0
STYLE
  5
36
330
3
100
AcDbSymbolTableRecord
100
AcDbTextStyleTableRecord
  2
DIMTXT
 70
     0
 40
0.0
 41
1.0
 50
0.0
 71
     0
 42
1.125
  3
archt.shx
  4

  0
ENDTAB
  0
TABLE
  2
VIEW
  5
6
330
0
100
AcDbSymbolTable
 70
     0
  0
ENDTAB
  0
TABLE
  2
UCS
  5
7
330
0
100
AcDbSymbolTable
 70
     0
  0
ENDTAB
  0
TABLE
  2
APPID
  5
9
330
0
100
AcDbSymbolTable
 70
     1
  0
APPID
  5
12
330
9
100
AcDbSymbolTableRecord
100
AcDbRegAppTableRecord
  2
ACAD
 70
     0
  0
ENDTAB
  0
TABLE
  2
DIMSTYLE
  5
A
330
0
100
AcDbSymbolTable
 70
    10
  0
DIMSTYLE
105
27
102
{ACAD_REACTORS
330
212
330
220
102
}
330
A
100
AcDbSymbolTableRecord
100
AcDbDimStyleTableRecord
  2
STANDARD
 70
     0
  3

  4

  5

  6

  7

 40
1.0
 41
0.18
 42
0.0625
 43
0.38
 44
0.18
 45
0.0
 46
0.0
 47
0.0
 48
0.0
140
0.18
141
0.09
142
0.0
143
25.4
144
1.0
145
0.0
146
1.0
147
0.09
 71
     0
 72
     0
 73
     1
 74
     1
 75
     0
 76
     0
 77
     0
 78
     0
170
     0
171
     2
172
     0
173
     0
174
     0
175
     0
176
     0
177
     0
178
     0
270
     2
271
     2
272
     2
273
     2
274
     2
340
11
275
     0
280
     0
281
     0
282
     0
283
     1
284
     0
285
     0
286
     0
287
     3
288
     0
  0
DIMSTYLE
105
37
330
A
100
AcDbSymbolTableRecord
100
AcDbDimStyleTableRecord
  2
1
 70
     0
  3

  4

  5

  6

  7

 40
1.0
 41
1.125
 42
0.5
 43
0.375
 44
1.19921875
 45
0.0
 46
0.5
 47
0.0
 48
0.0
140
1.125
141
0.125
142
0.0
143
25.4
144
1.0
145
0.0
146
0.8
147
0.5625
 71
     0
 72
     0
 73
     0
 74
     0
 75
     0
 76
     0
 77
     1
 78
     3
170
     0
171
     2
172
     1
173
     0
174
     1
175
     0
176
   133
177
   133
178
   150
270
     2
271
     3
272
     3
273
     2
274
     2
340
36
275
     0
280
     0
281
     0
282
     0
283
     1
284
     0
285
     0
286
     0
287
     4
288
     0
  0
DIMSTYLE
105
38
330
A
100
AcDbSymbolTableRecord
100
AcDbDimStyleTableRecord
  2
1$2
 70
     0
  3

  4

  5
DOTSMALL
  6

  7

 40
1.0
 41
1.5
 42
0.5
 43
0.375
 44
1.19921875
 45
0.0
 46
0.5
 47
0.0
 48
0.0
140
0.75
141
0.125
142
0.0
143
25.4
144
1.0
145
0.0
146
0.8
147
0.5625
 71
     0
 72
     0
 73
     0
 74
     0
 75
     0
 76
     0
 77
     1
 78
     3
170
     0
171
     2
172
     1
173
     0
174
     1
175
     0
176
   133
177
   133
178
   150
270
     2
271
     3
272
     3
273
     2
274
     2
340
36
275
     0
280
     0
281
     0
282
     0
283
     1
284
     0
285
     0
286
     0
287
     4
288
     0
  0
DIMSTYLE
105
39
330
A
100
AcDbSymbolTableRecord
100
AcDbDimStyleTableRecord
  2
1$4
 70
     0
  3

  4

  5

  6

  7
DOTSMALL
 40
1.0
 41
1.5
 42
0.5
 43
0.375
 44
1.19921875
 45
0.0
 46
0.5
 47
0.0
 48
0.0
140
0.75
141
0.125
142
0.0
143
25.4
144
1.0
145
0.0
146
0.8
147
0.5625
 71
     0
 72
     0
 73
     0
 74
     0
 75
     0
 76
     0
 77
     1
 78
     3
170
     0
171
     2
172
     1
173
     1
174
     1
175
     0
176
   133
177
   133
178
   150
270
     2
271
     3
272
     3
273
     2
274
     2
340
36
275
     0
280
     0
281
     0
282
     0
283
     1
284
     0
285
     0
286
     0
287
     4
288
     0
  0
DIMSTYLE
105
3A
330
A
100
AcDbSymbolTableRecord
100
AcDbDimStyleTableRecord
  2
1$3
 70
     0
  3

  4

  5
DOTSMALL
  6

  7

 40
1.0
 41
1.5
 42
0.5
 43
0.375
 44
1.19921875
 45
0.0
 46
0.5
 47
0.0
 48
0.0
140
0.75
141
0.125
142
0.0
143
25.4
144
1.0
145
0.0
146
0.8
147
0.5625
 71
     0
 72
     0
 73
     0
 74
     0
 75
     0
 76
     0
 77
     1
 78
     3
170
     0
171
     2
172
     1
173
     0
174
     1
175
     0
176
   133
177
   133
178
   150
270
     2
271
     3
272
     3
273
     2
274
     2
340
36
275
     0
280
     0
281
     0
282
     0
283
     1
284
     0
285
     0
286
     0
287
     4
288
     0
  0
DIMSTYLE
105
3B
330
A
100
AcDbSymbolTableRecord
100
AcDbDimStyleTableRecord
  2
1$7
 70
     0
  3

  4

  5

  6

  7

 40
1.0
 41
1.0
 42
0.5
 43
0.375
 44
1.19921875
 45
0.0
 46
0.5
 47
0.0
 48
0.0
140
0.75
141
0.125
142
0.0
143
25.4
144
1.0
145
0.0
146
0.8
147
0.5625
 71
     0
 72
     0
 73
     0
 74
     0
 75
     0
 76
     0
 77
     1
 78
     3
170
     0
171
     2
172
     1
173
     0
174
     1
175
     0
176
   133
177
   133
178
   150
270
     2
271
     3
272
     3
273
     2
274
     2
340
36
275
     0
280
     0
281
     0
282
     0
283
     1
284
     0
285
     0
286
     0
287
     4
288
     0
  0
DIMSTYLE
105
B6
330
A
100
AcDbSymbolTableRecord
100
AcDbDimStyleTableRecord
  2
STANDARD$2
 70
     0
  3

  4

  5
DOTSMALL
  6

  7

 40
1.0
 41
1.5
 42
0.5
 43
0.375
 44
0.5
 45
0.0
 46
0.5
 47
0.0
 48
0.0
140
0.75
141
0.125
142
0.0
143
25.4
144
1.0
145
0.0
146
0.8
147
0.25
 71
     0
 72
     0
 73
     0
 74
     0
 75
     0
 76
     0
 77
     1
 78
     4
170
     0
171
     2
172
     1
173
     0
174
     1
175
     0
176
   133
177
   133
178
   150
270
     2
271
     3
272
     3
273
     2
274
     2
340
36
275
     0
280
     0
281
     0
282
     0
283
     1
284
     0
285
     0
286
     0
287
     3
288
     0
  0
DIMSTYLE
105
B7
330
A
100
AcDbSymbolTableRecord
100
AcDbDimStyleTableRecord
  2
STANDARD$4
 70
     0
  3

  4

  5

  6
DOTSMALL
  7
DOTSMALL
 40
1.0
 41
1.5
 42
0.5
 43
0.375
 44
0.5
 45
0.0
 46
0.5
 47
0.0
 48
0.0
140
0.75
141
0.125
142
0.0
143
25.4
144
1.0
145
0.0
146
0.8
147
0.25
 71
     0
 72
     0
 73
     1
 74
     1
 75
     0
 76
     0
 77
     0
 78
     4
170
     0
171
     2
172
     1
173
     1
174
     1
175
     0
176
   133
177
   133
178
   150
270
     2
271
     3
272
     3
273
     2
274
     2
340
36
275
     0
280
     0
281
     0
282
     0
283
     1
284
     0
285
     0
286
     0
287
     3
288
     1
  0
DIMSTYLE
105
B8
330
A
100
AcDbSymbolTableRecord
100
AcDbDimStyleTableRecord
  2
STANDARD$3
 70
     0
  3

  4

  5
DOTSMALL
  6

  7

 40
1.0
 41
1.5
 42
0.5
 43
0.375
 44
0.5
 45
0.0
 46
0.5
 47
0.0
 48
0.0
140
0.75
141
0.125
142
0.0
143
25.4
144
1.0
145
0.0
146
0.8
147
0.25
 71
     0
 72
     0
 73
     1
 74
     1
 75
     0
 76
     0
 77
     0
 78
     4
170
     0
171
     2
172
     1
173
     0
174
     1
175
     0
176
   133
177
   133
178
   150
270
     2
271
     3
272
     3
273
     2
274
     2
340
36
275
     0
280
     0
281
     0
282
     0
283
     1
284
     0
285
     0
286
     0
287
     3
288
     1
  0
DIMSTYLE
105
B9
330
A
100
AcDbSymbolTableRecord
100
AcDbDimStyleTableRecord
  2
STANDARD$7
 70
     0
  3

  4

  5
DOTSMALL
  6

  7

 40
1.0
 41
1.5
 42
0.5
 43
0.375
 44
0.5
 45
0.0
 46
0.5
 47
0.0
 48
0.0
140
0.75
141
0.125
142
0.0
143
25.4
144
1.0
145
0.0
146
0.8
147
0.25
 71
     0
 72
     0
 73
     0
 74
     0
 75
     0
 76
     0
 77
     1
 78
     4
170
     0
171
     2
172
     1
173
     0
174
     1
175
     0
176
   133
177
   133
178
   150
270
     2
271
     3
272
     3
273
     2
274
     2
340
36
275
     0
280
     0
281
     0
282
     0
283
     1
284
     0
285
     0
286
     0
287
     3
288
     0
  0
ENDTAB
  0
TABLE
  2
BLOCK_RECORD
  5
1
330
0
100
AcDbSymbolTable
 70
     9
  0
BLOCK_RECORD
  5
1F
102
{ACAD_XDICTIONARY
360
235
102
}
330
1
100
AcDbSymbolTableRecord
100
AcDbBlockTableRecord
  2
*MODEL_SPACE
  0
BLOCK_RECORD
  5
1B
102
{ACAD_XDICTIONARY
360
233
102
}
330
1
100
AcDbSymbolTableRecord
100
AcDbBlockTableRecord
  2
*PAPER_SPACE
  0
BLOCK_RECORD
  5
2B
330
1
100
AcDbSymbolTableRecord
100
AcDbBlockTableRecord
  2
_DOT
  0
BLOCK_RECORD
  5
30
330
1
100
AcDbSymbolTableRecord
100
AcDbBlockTableRecord
  2
_DOTSMALL
  0
BLOCK_RECORD
  5
1F7
330
1
100
AcDbSymbolTableRecord
100
AcDbBlockTableRecord
  2
*D5
  0
BLOCK_RECORD
  5
205
330
1
100
AcDbSymbolTableRecord
100
AcDbBlockTableRecord
  2
*D6
  0
BLOCK_RECORD
  5
213
330
1
100
AcDbSymbolTableRecord
100
AcDbBlockTableRecord
  2
*D7
  0
BLOCK_RECORD
  5
221
330
1
100
AcDbSymbolTableRecord
100
AcDbBlockTableRecord
  2
*D8
  0
ENDTAB
  0
ENDSEC
  0
SECTION
  2
BLOCKS
  0
BLOCK
  5
20
330
1F
100
AcDbEntity
  8
0
100
AcDbBlockBegin
  2
*MODEL_SPACE
 70
     0
 10
0.0
 20
0.0
 30
0.0
  3
*MODEL_SPACE
  1

  0
ENDBLK
  5
21
330
1F
100
AcDbEntity
  8
0
100
AcDbBlockEnd
  0
BLOCK
  5
1C
330
1B
100
AcDbEntity
 67
     1
  8
0
100
AcDbBlockBegin
  2
*PAPER_SPACE
 70
     0
 10
0.0
 20
0.0
 30
0.0
  3
*PAPER_SPACE
  1

  0
ENDBLK
  5
1D
330
1B
100
AcDbEntity
 67
     1
  8
0
100
AcDbBlockEnd
  0
BLOCK
  5
2E
330
2B
100
AcDbEntity
  8
0
100
AcDbBlockBegin
  2
_DOT
 70
     0
 10
0.0
 20
0.0
 30
0.0
  3
_DOT
  1

  0
POLYLINE
  5
2C
330
2B
100
AcDbEntity
  8
L
 62
     0
100
AcDb2dPolyline
 66
     1
 10
0.0
 20
0.0
 30
0.0
 70
     1
 40
0.5
 41
0.5
  0
VERTEX
  5
239
330
2C
100
AcDbEntity
  8
L
 62
     0
100
AcDbVertex
100
AcDb2dVertex
 10
-0.25
 20
0.0
 30
0.0
 42
1.0
  0
VERTEX
  5
23A
330
2C
100
AcDbEntity
  8
L
 62
     0
100
AcDbVertex
100
AcDb2dVertex
 10
0.25
 20
0.0
 30
0.0
 42
1.0
  0
SEQEND
  5
23B
330
2C
100
AcDbEntity
  8
L
 62
     0
  0
LINE
  5
2D
330
2B
100
AcDbEntity
  8
L
 62
     0
100
AcDbLine
 10
-0.5
 20
0.0
 30
0.0
 11
-1.0
 21
0.0
 31
0.0
  0
ENDBLK
  5
2F
330
2B
100
AcDbEntity
  8
0
100
AcDbBlockEnd
  0
BLOCK
  5
32
330
30
100
AcDbEntity
  8
0
 48
0.116666
100
AcDbBlockBegin
  2
_DOTSMALL
 70
     0
 10
0.0
 20
0.0
 30
0.0
  3
_DOTSMALL
  1

  0
POLYLINE
  5
31
330
30
100
AcDbEntity
  8
0
  6
BYBLOCK
 62
     0
100
AcDb2dPolyline
 66
     1
 10
0.0
 20
0.0
 30
0.0
 70
     1
 40
0.5
 41
0.5
  0
VERTEX
  5
23C
330
31
100
AcDbEntity
  8
0
  6
BYBLOCK
 62
     0
100
AcDbVertex
100
AcDb2dVertex
 10
-0.0625
 20
0.0
 30
0.0
 42
1.0
  0
VERTEX
  5
23D
330
31
100
AcDbEntity
  8
0
  6
BYBLOCK
 62
     0
100
AcDbVertex
100
AcDb2dVertex
 10
0.0625
 20
0.0
 30
0.0
 42
1.0
  0
SEQEND
  5
23E
330
31
100
AcDbEntity
  8
0
  6
BYBLOCK
 62
     0
  0
ENDBLK
  5
33
330
30
100
AcDbEntity
  8
0
 48
0.116666
100
AcDbBlockEnd
  0
BLOCK
  5
202
330
1F7
100
AcDbEntity
  8
0
100
AcDbBlockBegin
  2
*D5
 70
     1
 10
0.0
 20
0.0
 30
0.0
  3
*D5
  1

  0
LINE
  5
1F8
330
1F7
100
AcDbEntity
  8
0
 62
     0
100
AcDbLine
 10
5.520710353684442
 20
7.136541334398319
 30
0.0
 11
5.520710353684442
 21
7.882200947089739
 31
0.0
  0
LINE
  5
1F9
330
1F7
100
AcDbEntity
  8
0
 62
     0
100
AcDbLine
 10
9.559356132109677
 20
7.136541334398319
 30
0.0
 11
9.559356132109677
 21
7.882200947089739
 31
0.0
  0
LINE
  5
1FA
330
1F7
100
AcDbEntity
  8
0
 62
     0
100
AcDbLine
 10
5.700710353684442
 20
7.702200947089739
 30
0.0
 11
7.19503324289706
 21
7.702200947089739
 31
0.0
  0
LINE
  5
1FB
330
1F7
100
AcDbEntity
  8
0
 62
     0
100
AcDbLine
 10
9.379356132109677
 20
7.702200947089739
 30
0.0
 11
7.885033242897059
 21
7.702200947089739
 31
0.0
  0
SOLID
  5
1FC
330
1F7
100
AcDbEntity
  8
0
 62
     0
100
AcDbTrace
 10
5.700710353684442
 20
7.732200947089739
 30
0.0
 11
5.700710353684442
 21
7.672200947089739
 31
0.0
 12
5.520710353684442
 22
7.702200947089739
 32
0.0
 13
5.520710353684442
 23
7.702200947089739
 33
0.0
  0
SOLID
  5
1FD
330
1F7
100
AcDbEntity
  8
0
 62
     0
100
AcDbTrace
 10
9.379356132109677
 20
7.732200947089739
 30
0.0
 11
9.379356132109677
 21
7.672200947089739
 31
0.0
 12
9.559356132109677
 22
7.702200947089739
 32
0.0
 13
9.559356132109677
 23
7.702200947089739
 33
0.0
  0
MTEXT
  5
1FE
330
1F7
100
AcDbEntity
  8
0
 62
     0
100
AcDbMText
 10
7.54003324289706
 20
7.702200947089739
 30
0.0
 40
0.18
 41
0.0
 71
     5
 72
     1
  1
\A1;4.04
1001
ACAD
1000
MTEXTBEGIN
1070
    73
1070
     1
1070
    44
1040
1.0
1070
    74
1070
     0
1000
MTEXTEND
  0
POINT
  5
1FF
330
1F7
100
AcDbEntity
  8
DEFPOINTS
 62
     0
100
AcDbPoint
 10
5.520710353684442
 20
7.074041334398319
 30
0.0
  0
POINT
  5
200
330
1F7
100
AcDbEntity
  8
DEFPOINTS
 62
     0
100
AcDbPoint
 10
9.559356132109677
 20
7.074041334398319
 30
0.0
  0
POINT
  5
201
330
1F7
100
AcDbEntity
  8
DEFPOINTS
 62
     0
100
AcDbPoint
 10
9.559356132109677
 20
7.702200947089739
 30
0.0
  0
ENDBLK
  5
203
330
1F7
100
AcDbEntity
  8
0
100
AcDbBlockEnd
  0
BLOCK
  5
210
330
205
100
AcDbEntity
  8
0
100
AcDbBlockBegin
  2
*D6
 70
     1
 10
0.0
 20
0.0
 30
0.0
  3
*D6
  1

  0
LINE
  5
206
330
205
100
AcDbEntity
  8
0
 62
     0
100
AcDbLine
 10
5.489710353685403
 20
7.10554133439928
 30
0.0
 11
4.67707848911268
 21
7.10554133439928
 31
0.0
  0
LINE
  5
207
330
205
100
AcDbEntity
  8
0
 62
     0
100
AcDbLine
 10
7.81651479396114
 20
4.636847531521201
 30
0.0
 11
4.677078489112679
 21
4.636847531521202
 31
0.0
  0
LINE
  5
208
330
205
100
AcDbEntity
  8
0
 62
     0
100
AcDbLine
 10
4.85707848911268
 20
6.92554133439928
 30
0.0
 11
4.85707848911268
 21
6.051194432960241
 31
0.0
  0
LINE
  5
209
330
205
100
AcDbEntity
  8
0
 62
     0
100
AcDbLine
 10
4.857078489112679
 20
4.816847531521202
 30
0.0
 11
4.857078489112679
 21
5.691194432960242
 31
0.0
  0
SOLID
  5
20A
330
205
100
AcDbEntity
  8
0
 62
     0
100
AcDbTrace
 10
4.82707848911268
 20
6.92554133439928
 30
0.0
 11
4.88707848911268
 21
6.92554133439928
 31
0.0
 12
4.85707848911268
 22
7.10554133439928
 32
0.0
 13
4.85707848911268
 23
7.10554133439928
 33
0.0
  0
SOLID
  5
20B
330
205
100
AcDbEntity
  8
0
 62
     0
100
AcDbTrace
 10
4.827078489112679
 20
4.816847531521202
 30
0.0
 11
4.887078489112679
 21
4.816847531521202
 31
0.0
 12
4.857078489112679
 22
4.636847531521202
 32
0.0
 13
4.857078489112679
 23
4.636847531521202
 33
0.0
  0
MTEXT
  5
20C
330
205
100
AcDbEntity
  8
0
 62
     0
100
AcDbMText
 10
4.857078489112678
 20
5.871194432960242
 30
0.0
 40
0.18
 41
0.0
 71
     5
 72
     1
  1
\A1;2.47
1001
ACAD
1000
MTEXTBEGIN
1070
    73
1070
     1
1070
    44
1040
1.0
1070
    74
1070
     0
1000
MTEXTEND
  0
POINT
  5
20D
330
205
100
AcDbEntity
  8
DEFPOINTS
 62
     0
100
AcDbPoint
 10
5.552210353685403
 20
7.10554133439928
 30
0.0
  0
POINT
  5
20E
330
205
100
AcDbEntity
  8
DEFPOINTS
 62
     0
100
AcDbPoint
 10
7.87901479396114
 20
4.636847531521201
 30
0.0
  0
POINT
  5
20F
330
205
100
AcDbEntity
  8
DEFPOINTS
 62
     0
100
AcDbPoint
 10
4.857078489112679
 20
4.636847531521202
 30
0.0
  0
ENDBLK
  5
211
330
205
100
AcDbEntity
  8
0
100
AcDbBlockEnd
  0
BLOCK
  5
21E
330
213
100
AcDbEntity
  8
0
100
AcDbBlockBegin
  2
*D7
 70
     1
 10
0.0
 20
0.0
 30
0.0
  3
*D7
  1

  0
LINE
  5
214
330
213
100
AcDbEntity
  8
0
 62
     0
100
AcDbLine
 10
5.520710353684442
 20
7.106593417731652
 30
0.0
 11
5.520710353684442
 21
7.647258436464067
 31
0.0
  0
LINE
  5
215
330
213
100
AcDbEntity
  8
0
 62
     0
100
AcDbLine
 10
9.559356132109677
 20
7.106593417731652
 30
0.0
 11
9.559356132109677
 21
7.647258436464067
 31
0.0
  0
LINE
  5
216
330
213
100
AcDbEntity
  8
0
 62
     0
100
AcDbLine
 10
5.614460353684442
 20
7.553508436464067
 30
0.0
 11
7.36034574289706
 21
7.553508436464067
 31
0.0
  0
LINE
  5
217
330
213
100
AcDbEntity
  8
0
 62
     0
100
AcDbLine
 10
9.465606132109677
 20
7.553508436464067
 30
0.0
 11
7.71972074289706
 21
7.553508436464067
 31
0.0
  0
SOLID
  5
218
330
213
100
AcDbEntity
  8
0
 62
     0
100
AcDbTrace
 10
5.614460353684442
 20
7.569133436464067
 30
0.0
 11
5.614460353684442
 21
7.537883436464067
 31
0.0
 12
5.520710353684442
 22
7.553508436464067
 32
0.0
 13
5.520710353684442
 23
7.553508436464067
 33
0.0
  0
SOLID
  5
219
330
213
100
AcDbEntity
  8
0
 62
     0
100
AcDbTrace
 10
9.465606132109677
 20
7.569133436464067
 30
0.0
 11
9.465606132109677
 21
7.537883436464067
 31
0.0
 12
9.559356132109677
 22
7.553508436464067
 32
0.0
 13
9.559356132109677
 23
7.553508436464067
 33
0.0
  0
MTEXT
  5
21A
330
213
100
AcDbEntity
  8
0
 62
     0
100
AcDbMText
 10
7.54003324289706
 20
7.553508436464067
 30
0.0
 40
0.09375
 41
0.0
 71
     5
 72
     1
  1
\A1;4.04
1001
ACAD
1000
MTEXTBEGIN
1070
    73
1070
     1
1070
    44
1040
1.0
1070
    74
1070
     0
1000
MTEXTEND
  0
POINT
  5
21B
330
213
100
AcDbEntity
  8
DEFPOINTS
 62
     0
100
AcDbPoint
 10
5.520710353684442
 20
7.074041334398319
 30
0.0
  0
POINT
  5
21C
330
213
100
AcDbEntity
  8
DEFPOINTS
 62
     0
100
AcDbPoint
 10
9.559356132109677
 20
7.074041334398319
 30
0.0
  0
POINT
  5
21D
330
213
100
AcDbEntity
  8
DEFPOINTS
 62
     0
100
AcDbPoint
 10
9.559356132109677
 20
7.553508436464067
 30
0.0
  0
ENDBLK
  5
21F
330
213
100
AcDbEntity
  8
0
100
AcDbBlockEnd
  0
BLOCK
  5
22C
330
221
100
AcDbEntity
  8
0
100
AcDbBlockBegin
  2
*D8
 70
     1
 10
0.0
 20
0.0
 30
0.0
  3
*D8
  1

  0
LINE
  5
222
330
221
100
AcDbEntity
  8
0
 62
     0
100
AcDbLine
 10
5.51965827035207
 20
7.10554133439928
 30
0.0
 11
5.003607986973932
 21
7.10554133439928
 31
0.0
  0
LINE
  5
223
330
221
100
AcDbEntity
  8
0
 62
     0
100
AcDbLine
 10
7.846462710627807
 20
4.636847531521201
 30
0.0
 11
5.003607986973931
 21
4.636847531521202
 31
0.0
  0
LINE
  5
224
330
221
100
AcDbEntity
  8
0
 62
     0
100
AcDbLine
 10
5.097357986973932
 20
7.01179133439928
 30
0.0
 11
5.097357986973931
 21
5.964944432960241
 31
0.0
  0
LINE
  5
225
330
221
100
AcDbEntity
  8
0
 62
     0
100
AcDbLine
 10
5.097357986973931
 20
4.730597531521202
 30
0.0
 11
5.097357986973931
 21
5.777444432960241
 31
0.0
  0
SOLID
  5
226
330
221
100
AcDbEntity
  8
0
 62
     0
100
AcDbTrace
 10
5.081732986973932
 20
7.01179133439928
 30
0.0
 11
5.112982986973932
 21
7.01179133439928
 31
0.0
 12
5.097357986973932
 22
7.10554133439928
 32
0.0
 13
5.097357986973932
 23
7.10554133439928
 33
0.0
  0
SOLID
  5
227
330
221
100
AcDbEntity
  8
0
 62
     0
100
AcDbTrace
 10
5.081732986973931
 20
4.730597531521202
 30
0.0
 11
5.112982986973931
 21
4.730597531521202
 31
0.0
 12
5.097357986973931
 22
4.636847531521202
 32
0.0
 13
5.097357986973931
 23
4.636847531521202
 33
0.0
  0
MTEXT
  5
228
330
221
100
AcDbEntity
  8
0
 62
     0
100
AcDbMText
 10
5.09735798697393
 20
5.871194432960242
 30
0.0
 40
0.09375
 41
0.0
 71
     5
 72
     1
  1
\A1;2.47
1001
ACAD
1000
MTEXTBEGIN
1070
    73
1070
     1
1070
    44
1040
1.0
1070
    74
1070
     0
1000
MTEXTEND
  0
POINT
  5
229
330
221
100
AcDbEntity
  8
DEFPOINTS
 62
     0
100
AcDbPoint
 10
5.552210353685403
 20
7.10554133439928
 30
0.0
  0
POINT
  5
22A
330
221
100
AcDbEntity
  8
DEFPOINTS
 62
     0
100
AcDbPoint
 10
7.87901479396114
 20
4.636847531521201
 30
0.0
  0
POINT
  5
22B
330
221
100
AcDbEntity
  8
DEFPOINTS
 62
     0
100
AcDbPoint
 10
5.097357986973931
 20
4.636847531521202
 30
0.0
  0
ENDBLK
  5
22D
330
221
100
AcDbEntity
  8
0
100
AcDbBlockEnd
  0
ENDSEC
  0
SECTION
  2
ENTITIES
  0
POLYLINE
  5
14F
330
1F
100
AcDbEntity
  8
MAIN
 62
     5
100
AcDb2dPolyline
 66
     1
 10
0.0
 20
0.0
 30
0.0
 70
     1
  0
VERTEX
  5
23F
330
14F
100
AcDbEntity
  8
MAIN
 62
     5
100
AcDbVertex
100
AcDb2dVertex
 10
6.18819513163671
 20
6.757541334400233
 30
0.0
  0
VERTEX
  5
240
330
14F
100
AcDbEntity
  8
MAIN
 62
     5
100
AcDbVertex
100
AcDb2dVertex
 10
6.426312749633687
 20
6.757541334401125
 30
0.0
 42
-0.1826758136874845
  0
VERTEX
  5
241
330
14F
100
AcDbEntity
  8
MAIN
 62
     5
100
AcDbVertex
100
AcDb2dVertex
 10
6.446155884466513
 20
6.75004133439984
 30
0.0
 42
0.3779644730101547
  0
VERTEX
  5
242
330
14F
100
AcDbEntity
  8
MAIN
 62
     5
100
AcDbVertex
100
AcDb2dVertex
 10
6.485842154132278
 20
6.75004133439984
 30
0.0
 42
-0.3779644730101545
  0
VERTEX
  5
243
330
14F
100
AcDbEntity
  8
MAIN
 62
     5
100
AcDbVertex
100
AcDb2dVertex
 10
6.525528423798839
 20
6.75004133439984
 30
0.0
 42
0.3779644730101547
  0
VERTEX
  5
244
330
14F
100
AcDbEntity
  8
MAIN
 62
     5
100
AcDbVertex
100
AcDb2dVertex
 10
6.565214693464604
 20
6.75004133439984
 30
0.0
 42
-0.3779644730101545
  0
VERTEX
  5
245
330
14F
100
AcDbEntity
  8
MAIN
 62
     5
100
AcDbVertex
100
AcDb2dVertex
 10
6.604900963131164
 20
6.75004133439984
 30
0.0
 42
0.3779644730101547
  0
VERTEX
  5
246
330
14F
100
AcDbEntity
  8
MAIN
 62
     5
100
AcDbVertex
100
AcDb2dVertex
 10
6.644587232796929
 20
6.75004133439984
 30
0.0
 42
-0.3779644730101545
  0
VERTEX
  5
247
330
14F
100
AcDbEntity
  8
MAIN
 62
     5
100
AcDbVertex
100
AcDb2dVertex
 10
6.68427350246349
 20
6.75004133439984
 30
0.0
 42
0.3779644730101547
  0
VERTEX
  5
248
330
14F
100
AcDbEntity
  8
MAIN
 62
     5
100
AcDbVertex
100
AcDb2dVertex
 10
6.723959772129255
 20
6.75004133439984
 30
0.0
 42
-0.3779644730101545
  0
VERTEX
  5
249
330
14F
100
AcDbEntity
  8
MAIN
 62
     5
100
AcDbVertex
100
AcDb2dVertex
 10
6.763646041796034
 20
6.750041334400088
 30
0.0
 42
0.4738173398743075
  0
VERTEX
  5
24A
330
14F
100
AcDbEntity
  8
MAIN
 62
     5
100
AcDbVertex
100
AcDb2dVertex
 10
6.809469938741493
 20
6.757541334396595
 30
0.0
  0
VERTEX
  5
24B
330
14F
100
AcDbEntity
  8
MAIN
 62
     5
100
AcDbVertex
100
AcDb2dVertex
 10
6.859753940634071
 20
6.757541334395686
 30
0.0
 42
0.4142135623730951
  0
VERTEX
  5
24C
330
14F
100
AcDbEntity
  8
MAIN
 62
     5
100
AcDbVertex
100
AcDb2dVertex
 10
6.869753940634289
 20
6.767541334395904
 30
0.0
  0
VERTEX
  5
24D
330
14F
100
AcDbEntity
  8
MAIN
 62
     5
100
AcDbVertex
100
AcDb2dVertex
 10
6.86975394063247
 20
7.015541334399134
 30
0.0
 42
0.4142135623730951
  0
VERTEX
  5
24E
330
14F
100
AcDbEntity
  8
MAIN
 62
     5
100
AcDbVertex
100
AcDb2dVertex
 10
6.859753940632252
 20
7.025541334399353
 30
0.0
  0
VERTEX
  5
24F
330
14F
100
AcDbEntity
  8
MAIN
 62
     5
100
AcDbVertex
100
AcDb2dVertex
 10
6.80946993874133
 20
7.025541334401987
 30
0.0
 42
0.4738173398884836
  0
VERTEX
  5
250
330
14F
100
AcDbEntity
  8
MAIN
 62
     5
100
AcDbVertex
100
AcDb2dVertex
 10
6.763646041795418
 20
7.033041334399287
 30
0.0
 42
-0.3779644730101545
  0
VERTEX
  5
251
330
14F
100
AcDbEntity
  8
MAIN
 62
     5
100
AcDbVertex
100
AcDb2dVertex
 10
6.723959772129653
 20
7.033041334399287
 30
0.0
 42
0.3779644730101545
  0
VERTEX
  5
252
330
14F
100
AcDbEntity
  8
MAIN
 62
     5
100
AcDbVertex
100
AcDb2dVertex
 10
6.684273502463092
 20
7.033041334399287
 30
0.0
 42
-0.3779644730101545
  0
VERTEX
  5
253
330
14F
100
AcDbEntity
  8
MAIN
 62
     5
100
AcDbVertex
100
AcDb2dVertex
 10
6.644587232797327
 20
7.033041334399287
 30
0.0
 42
0.3779644730101545
  0
VERTEX
  5
254
330
14F
100
AcDbEntity
  8
MAIN
 62
     5
100
AcDbVertex
100
AcDb2dVertex
 10
6.604900963130766
 20
7.033041334399287
 30
0.0
 42
-0.3779644730101545
  0
VERTEX
  5
255
330
14F
100
AcDbEntity
  8
MAIN
 62
     5
100
AcDbVertex
100
AcDb2dVertex
 10
6.565214693465001
 20
7.033041334399287
 30
0.0
 42
0.3779644730101545
  0
VERTEX
  5
256
330
14F
100
AcDbEntity
  8
MAIN
 62
     5
100
AcDbVertex
100
AcDb2dVertex
 10
6.525528423798441
 20
7.033041334399287
 30
0.0
 42
-0.3779644730101545
  0
VERTEX
  5
257
330
14F
100
AcDbEntity
  8
MAIN
 62
     5
100
AcDbVertex
100
AcDb2dVertex
 10
6.485842154132676
 20
7.033041334399287
 30
0.0
 42
0.3779644730101545
  0
VERTEX
  5
258
330
14F
100
AcDbEntity
  8
MAIN
 62
     5
100
AcDbVertex
100
AcDb2dVertex
 10
6.446155884466299
 20
7.033041334399078
 30
0.0
 42
-0.1826758136790818
  0
VERTEX
  5
259
330
14F
100
AcDbEntity
  8
MAIN
 62
     5
100
AcDbVertex
100
AcDb2dVertex
 10
6.426312749633687
 20
7.025541334399353
 30
0.0
  0
VERTEX
  5
25A
330
14F
100
AcDbEntity
  8
MAIN
 62
     5
100
AcDbVertex
100
AcDb2dVertex
 10
6.18819513163671
 20
7.025541334400995
 30
0.0
 42
-0.1826758136856492
  0
VERTEX
  5
25B
330
14F
100
AcDbEntity
  8
MAIN
 62
     5
100
AcDbVertex
100
AcDb2dVertex
 10
6.168351996803373
 20
7.033041334399287
 30
0.0
 42
0.3779644730101545
  0
VERTEX
  5
25C
330
14F
100
AcDbEntity
  8
MAIN
 62
     5
100
AcDbVertex
100
AcDb2dVertex
 10
6.128665727136812
 20
7.033041334399287
 30
0.0
 42
-0.3779644730101545
  0
VERTEX
  5
25D
330
14F
100
AcDbEntity
  8
MAIN
 62
     5
100
AcDbVertex
100
AcDb2dVertex
 10
6.088979457471047
 20
7.033041334399287
 30
0.0
 42
0.3779644730101545
  0
VERTEX
  5
25E
330
14F
100
AcDbEntity
  8
MAIN
 62
     5
100
AcDbVertex
100
AcDb2dVertex
 10
6.049293187804487
 20
7.033041334399287
 30
0.0
 42
-0.3779644730101545
  0
VERTEX
  5
25F
330
14F
100
AcDbEntity
  8
MAIN
 62
     5
100
AcDbVertex
100
AcDb2dVertex
 10
6.009606918138722
 20
7.033041334399287
 30
0.0
 42
0.3779644730101545
  0
VERTEX
  5
260
330
14F
100
AcDbEntity
  8
MAIN
 62
     5
100
AcDbVertex
100
AcDb2dVertex
 10
5.969920648472161
 20
7.033041334399287
 30
0.0
 42
-0.3779644730101545
  0
VERTEX
  5
261
330
14F
100
AcDbEntity
  8
MAIN
 62
     5
100
AcDbVertex
100
AcDb2dVertex
 10
5.930234378806396
 20
7.033041334399287
 30
0.0
 42
0.3779644730101545
  0
VERTEX
  5
262
330
14F
100
AcDbEntity
  8
MAIN
 62
     5
100
AcDbVertex
100
AcDb2dVertex
 10
5.890548109139892
 20
7.033041334399222
 30
0.0
 42
-0.3779644730109215
  0
VERTEX
  5
263
330
14F
100
AcDbEntity
  8
MAIN
 62
     5
100
AcDbVertex
100
AcDb2dVertex
 10
5.850861839472982
 20
7.033041334398175
 30
0.0
 42
0.4738173399102754
  0
VERTEX
  5
264
330
14F
100
AcDbEntity
  8
MAIN
 62
     5
100
AcDbVertex
100
AcDb2dVertex
 10
5.805037942527086
 20
7.025541334398443
 30
0.0
  0
VERTEX
  5
265
330
14F
100
AcDbEntity
  8
MAIN
 62
     5
100
AcDbVertex
100
AcDb2dVertex
 10
5.754753940631779
 20
7.025541334399353
 30
0.0
 42
0.4142135623730951
  0
VERTEX
  5
266
330
14F
100
AcDbEntity
  8
MAIN
 62
     5
100
AcDbVertex
100
AcDb2dVertex
 10
5.744753940631561
 20
7.015541334399134
 30
0.0
  0
VERTEX
  5
267
330
14F
100
AcDbEntity
  8
MAIN
 62
     5
100
AcDbVertex
100
AcDb2dVertex
 10
5.744753940632288
 20
6.98554133439848
 30
0.0
 42
-0.4142135623730951
  0
VERTEX
  5
268
330
14F
100
AcDbEntity
  8
MAIN
 62
     5
100
AcDbVertex
100
AcDb2dVertex
 10
5.724753940632034
 20
6.965541334398043
 30
0.0
  0
VERTEX
  5
269
330
14F
100
AcDbEntity
  8
MAIN
 62
     5
100
AcDbVertex
100
AcDb2dVertex
 10
5.704753940629778
 20
6.965541334398574
 30
0.0
 42
-0.4142135623730951
  0
VERTEX
  5
26A
330
14F
100
AcDbEntity
  8
MAIN
 62
     5
100
AcDbVertex
100
AcDb2dVertex
 10
5.684753940629342
 20
6.985541334399389
 30
0.0
  0
VERTEX
  5
26B
330
14F
100
AcDbEntity
  8
MAIN
 62
     5
100
AcDbVertex
100
AcDb2dVertex
 10
5.684753940633162
 20
7.005541334398916
 30
0.0
 42
0.4142135623730951
  0
VERTEX
  5
26C
330
14F
100
AcDbEntity
  8
MAIN
 62
     5
100
AcDbVertex
100
AcDb2dVertex
 10
5.664753940632543
 20
7.025541334399353
 30
0.0
  0
VERTEX
  5
26D
330
14F
100
AcDbEntity
  8
MAIN
 62
     5
100
AcDbVertex
100
AcDb2dVertex
 10
5.60571035368266
 20
7.025541334399386
 30
0.0
 42
0.4142135623730951
  0
VERTEX
  5
26E
330
14F
100
AcDbEntity
  8
MAIN
 62
     5
100
AcDbVertex
100
AcDb2dVertex
 10
5.585710353682223
 20
7.005541334398916
 30
0.0
  0
VERTEX
  5
26F
330
14F
100
AcDbEntity
  8
MAIN
 62
     5
100
AcDbVertex
100
AcDb2dVertex
 10
5.585710353685265
 20
6.803896964603158
 30
0.0
 42
0.4701494612482832
  0
VERTEX
  5
270
330
14F
100
AcDbEntity
  8
MAIN
 62
     5
100
AcDbVertex
100
AcDb2dVertex
 10
5.60943128252379
 20
6.784246153981499
 30
0.0
 42
-0.0690664881123078
  0
VERTEX
  5
271
330
14F
100
AcDbEntity
  8
MAIN
 62
     5
100
AcDbVertex
100
AcDb2dVertex
 10
5.66298244410457
 20
6.786884220559114
 30
0.0
 42
0.3723433239094068
  0
VERTEX
  5
272
330
14F
100
AcDbEntity
  8
MAIN
 62
     5
100
AcDbVertex
100
AcDb2dVertex
 10
5.684210095748639
 20
6.802173476671897
 30
0.0
 42
-0.3472991948713756
  0
VERTEX
  5
273
330
14F
100
AcDbEntity
  8
MAIN
 62
     5
100
AcDbVertex
100
AcDb2dVertex
 10
5.703666283915843
 20
6.817541334400633
 30
0.0
  0
VERTEX
  5
274
330
14F
100
AcDbEntity
  8
MAIN
 62
     5
100
AcDbVertex
100
AcDb2dVertex
 10
5.724753940634762
 20
6.817541334399755
 30
0.0
 42
-0.4142135623730951
  0
VERTEX
  5
275
330
14F
100
AcDbEntity
  8
MAIN
 62
     5
100
AcDbVertex
100
AcDb2dVertex
 10
5.744753940635199
 20
6.797541334399287
 30
0.0
  0
VERTEX
  5
276
330
14F
100
AcDbEntity
  8
MAIN
 62
     5
100
AcDbVertex
100
AcDb2dVertex
 10
5.744753940635199
 20
6.767541334398632
 30
0.0
 42
0.4142135623730951
  0
VERTEX
  5
277
330
14F
100
AcDbEntity
  8
MAIN
 62
     5
100
AcDbVertex
100
AcDb2dVertex
 10
5.754753940635417
 20
6.757541334398414
 30
0.0
  0
VERTEX
  5
278
330
14F
100
AcDbEntity
  8
MAIN
 62
     5
100
AcDbVertex
100
AcDb2dVertex
 10
5.805037942526332
 20
6.757541334399413
 30
0.0
 42
0.4738173399077003
  0
VERTEX
  5
279
330
14F
100
AcDbEntity
  8
MAIN
 62
     5
100
AcDbVertex
100
AcDb2dVertex
 10
5.850861839473672
 20
6.75004133439984
 30
0.0
 42
-0.3779644730101545
  0
VERTEX
  5
27A
330
14F
100
AcDbEntity
  8
MAIN
 62
     5
100
AcDbVertex
100
AcDb2dVertex
 10
5.890548109140233
 20
6.75004133439984
 30
0.0
 42
0.3779644730101547
  0
VERTEX
  5
27B
330
14F
100
AcDbEntity
  8
MAIN
 62
     5
100
AcDbVertex
100
AcDb2dVertex
 10
5.930234378805998
 20
6.75004133439984
 30
0.0
 42
-0.3779644730101545
  0
VERTEX
  5
27C
330
14F
100
AcDbEntity
  8
MAIN
 62
     5
100
AcDbVertex
100
AcDb2dVertex
 10
5.969920648472559
 20
6.75004133439984
 30
0.0
 42
0.3779644730101547
  0
VERTEX
  5
27D
330
14F
100
AcDbEntity
  8
MAIN
 62
     5
100
AcDbVertex
100
AcDb2dVertex
 10
6.009606918138324
 20
6.75004133439984
 30
0.0
 42
-0.3779644730101545
  0
VERTEX
  5
27E
330
14F
100
AcDbEntity
  8
MAIN
 62
     5
100
AcDbVertex
100
AcDb2dVertex
 10
6.049293187804885
 20
6.75004133439984
 30
0.0
 42
0.3779644730101547
  0
VERTEX
  5
27F
330
14F
100
AcDbEntity
  8
MAIN
 62
     5
100
AcDbVertex
100
AcDb2dVertex
 10
6.088979457470649
 20
6.75004133439984
 30
0.0
 42
-0.3779644730101545
  0
VERTEX
  5
280
330
14F
100
AcDbEntity
  8
MAIN
 62
     5
100
AcDbVertex
100
AcDb2dVertex
 10
6.12866572713721
 20
6.75004133439984
 30
0.0
 42
0.3779644730101547
  0
VERTEX
  5
281
330
14F
100
AcDbEntity
  8
MAIN
 62
     5
100
AcDbVertex
100
AcDb2dVertex
 10
6.168351996802711
 20
6.750041334400139
 30
0.0
 42
-0.1826758136953166
  0
SEQEND
  5
282
330
14F
100
AcDbEntity
  8
MAIN
 62
     5
  0
POLYLINE
  5
1AD
330
1F
100
AcDbEntity
  8
MAIN
 62
     5
100
AcDb2dPolyline
 66
     1
 10
0.0
 20
0.0
 30
0.0
 70
     1
  0
VERTEX
  5
283
330
1AD
100
AcDbEntity
  8
MAIN
 62
     5
100
AcDbVertex
100
AcDb2dVertex
 10
7.829014793950144
 20
6.789541334400386
 30
0.0
 42
-0.4142135623647706
  0
VERTEX
  5
284
330
1AD
100
AcDbEntity
  8
MAIN
 62
     5
100
AcDbVertex
100
AcDb2dVertex
 10
7.7970147939508
 20
6.757541334400133
 30
0.0
  0
VERTEX
  5
285
330
1AD
100
AcDbEntity
  8
MAIN
 62
     5
100
AcDbVertex
100
AcDb2dVertex
 10
7.7970147939508
 20
6.757541334400233
 30
0.0
  0
VERTEX
  5
286
330
1AD
100
AcDbEntity
  8
MAIN
 62
     5
100
AcDbVertex
100
AcDb2dVertex
 10
6.964753940627268
 20
6.757541334397505
 30
0.0
  0
VERTEX
  5
287
330
1AD
100
AcDbEntity
  8
MAIN
 62
     5
100
AcDbVertex
100
AcDb2dVertex
 10
6.964753940627268
 20
6.75754133439705
 30
0.0
 42
-0.4142135623730951
  0
VERTEX
  5
288
330
1AD
100
AcDbEntity
  8
MAIN
 62
     5
100
AcDbVertex
100
AcDb2dVertex
 10
6.93275394062757
 20
6.789541334398567
 30
0.0
  0
VERTEX
  5
289
330
1AD
100
AcDbEntity
  8
MAIN
 62
     5
100
AcDbVertex
100
AcDb2dVertex
 10
6.932753940627115
 20
6.789541334398567
 30
0.0
  0
VERTEX
  5
28A
330
1AD
100
AcDbEntity
  8
MAIN
 62
     5
100
AcDbVertex
100
AcDb2dVertex
 10
6.932753940630753
 20
6.993541334400109
 30
0.0
 42
-0.4142135623647706
  0
VERTEX
  5
28B
330
1AD
100
AcDbEntity
  8
MAIN
 62
     5
100
AcDbVertex
100
AcDb2dVertex
 10
6.964753940630906
 20
7.025541334399353
 30
0.0
  0
VERTEX
  5
28C
330
1AD
100
AcDbEntity
  8
MAIN
 62
     5
100
AcDbVertex
100
AcDb2dVertex
 10
7.797514793952721
 20
7.025541334400262
 30
0.0
  0
VERTEX
  5
28D
330
1AD
100
AcDbEntity
  8
MAIN
 62
     5
100
AcDbVertex
100
AcDb2dVertex
 10
7.797514793952721
 20
7.025541334399807
 30
0.0
 42
-0.4142135623730951
  0
VERTEX
  5
28E
330
1AD
100
AcDbEntity
  8
MAIN
 62
     5
100
AcDbVertex
100
AcDb2dVertex
 10
7.829014793953227
 20
6.994041334399302
 30
0.0
  0
VERTEX
  5
28F
330
1AD
100
AcDbEntity
  8
MAIN
 62
     5
100
AcDbVertex
100
AcDb2dVertex
 10
7.829014793952772
 20
6.994041334399302
 30
0.0
  0
SEQEND
  5
290
330
1AD
100
AcDbEntity
  8
MAIN
 62
     5
  0
POLYLINE
  5
1D6
330
1F
100
AcDbEntity
  8
MAIN
 62
     5
100
AcDb2dPolyline
 66
     1
 10
0.0
 20
0.0
 30
0.0
 70
     1
  0
VERTEX
  5
291
330
1D6
100
AcDbEntity
  8
MAIN
 62
     5
100
AcDbVertex
100
AcDb2dVertex
 10
7.972014793952801
 20
7.025541334401362
 30
0.0
  0
VERTEX
  5
292
330
1D6
100
AcDbEntity
  8
MAIN
 62
     5
100
AcDbVertex
100
AcDb2dVertex
 10
7.972014793952801
 20
7.025541334401172
 30
0.0
  0
VERTEX
  5
293
330
1D6
100
AcDbEntity
  8
MAIN
 62
     5
100
AcDbVertex
100
AcDb2dVertex
 10
8.668356132108236
 20
7.025541334399425
 30
0.0
 42
-0.4142135623730951
  0
VERTEX
  5
294
330
1D6
100
AcDbEntity
  8
MAIN
 62
     5
100
AcDbVertex
100
AcDb2dVertex
 10
8.728356132108709
 20
6.965541334398952
 30
0.0
  0
VERTEX
  5
295
330
1D6
100
AcDbEntity
  8
MAIN
 62
     5
100
AcDbVertex
100
AcDb2dVertex
 10
8.728356132108636
 20
6.965541334398952
 30
0.0
  0
VERTEX
  5
296
330
1D6
100
AcDbEntity
  8
MAIN
 62
     5
100
AcDbVertex
100
AcDb2dVertex
 10
8.728356132109546
 20
6.154769691933328
 30
0.0
  0
VERTEX
  5
297
330
1D6
100
AcDbEntity
  8
MAIN
 62
     5
100
AcDbVertex
100
AcDb2dVertex
 10
8.728356132108636
 20
6.154769691933328
 30
0.0
 42
-0.4142135623686552
  0
VERTEX
  5
298
330
1D6
100
AcDbEntity
  8
MAIN
 62
     5
100
AcDbVertex
100
AcDb2dVertex
 10
8.668356132109146
 20
6.094769691932928
 30
0.0
  0
VERTEX
  5
299
330
1D6
100
AcDbEntity
  8
MAIN
 62
     5
100
AcDbVertex
100
AcDb2dVertex
 10
8.477634570347071
 20
6.094769691932018
 30
0.0
  0
VERTEX
  5
29A
330
1D6
100
AcDbEntity
  8
MAIN
 62
     5
100
AcDbVertex
100
AcDb2dVertex
 10
8.477634570347071
 20
6.094769691932037
 30
0.0
 42
0.3852932375227158
  0
VERTEX
  5
29B
330
1D6
100
AcDbEntity
  8
MAIN
 62
     5
100
AcDbVertex
100
AcDb2dVertex
 10
8.358230954072981
 20
5.986718600705981
 30
0.0
  0
VERTEX
  5
29C
330
1D6
100
AcDbEntity
  8
MAIN
 62
     5
100
AcDbVertex
100
AcDb2dVertex
 10
8.358230954073576
 20
5.986718600705922
 30
0.0
 42
-0.3852932375190212
  0
VERTEX
  5
29D
330
1D6
100
AcDbEntity
  8
MAIN
 62
     5
100
AcDbVertex
100
AcDb2dVertex
 10
8.298529153911111
 20
5.932693054293731
 30
0.0
  0
VERTEX
  5
29E
330
1D6
100
AcDbEntity
  8
MAIN
 62
     5
100
AcDbVertex
100
AcDb2dVertex
 10
8.298529153911111
 20
5.932693054293853
 30
0.0
  0
VERTEX
  5
29F
330
1D6
100
AcDbEntity
  8
MAIN
 62
     5
100
AcDbVertex
100
AcDb2dVertex
 10
7.972014793959168
 20
5.932693054295672
 30
0.0
  0
VERTEX
  5
2A0
330
1D6
100
AcDbEntity
  8
MAIN
 62
     5
100
AcDbVertex
100
AcDb2dVertex
 10
7.972014793959168
 20
5.932693054296105
 30
0.0
 42
-0.4142135623642157
  0
VERTEX
  5
2A1
330
1D6
100
AcDbEntity
  8
MAIN
 62
     5
100
AcDbVertex
100
AcDb2dVertex
 10
7.912014793960111
 20
5.992693054295163
 30
0.0
  0
VERTEX
  5
2A2
330
1D6
100
AcDbEntity
  8
MAIN
 62
     5
100
AcDbVertex
100
AcDb2dVertex
 10
7.912014793959677
 20
5.992693054295163
 30
0.0
  0
VERTEX
  5
2A3
330
1D6
100
AcDbEntity
  8
MAIN
 62
     5
100
AcDbVertex
100
AcDb2dVertex
 10
7.912014793956039
 20
6.469117194346839
 30
0.0
  0
VERTEX
  5
2A4
330
1D6
100
AcDbEntity
  8
MAIN
 62
     5
100
AcDbVertex
100
AcDb2dVertex
 10
7.902014793955821
 20
6.479117194347058
 30
0.0
  0
VERTEX
  5
2A5
330
1D6
100
AcDbEntity
  8
MAIN
 62
     5
100
AcDbVertex
100
AcDb2dVertex
 10
7.912014793956039
 20
6.489117194347276
 30
0.0
  0
VERTEX
  5
2A6
330
1D6
100
AcDbEntity
  8
MAIN
 62
     5
100
AcDbVertex
100
AcDb2dVertex
 10
7.912014793952401
 20
6.965541334399862
 30
0.0
  0
VERTEX
  5
2A7
330
1D6
100
AcDbEntity
  8
MAIN
 62
     5
100
AcDbVertex
100
AcDb2dVertex
 10
7.912014793953121
 20
6.965541334399862
 30
0.0
 42
-0.414213562373095
  0
SEQEND
  5
2A8
330
1D6
100
AcDbEntity
  8
MAIN
 62
     5
  0
POLYLINE
  5
1DA
330
1F
100
AcDbEntity
  8
MAIN
 62
     5
100
AcDb2dPolyline
 66
     1
 10
0.0
 20
0.0
 30
0.0
 70
     1
  0
VERTEX
  5
2A9
330
1DA
100
AcDbEntity
  8
MAIN
 62
     5
100
AcDbVertex
100
AcDb2dVertex
 10
9.183856132108665
 20
7.090541334398043
 30
0.0
  0
VERTEX
  5
2AA
330
1DA
100
AcDbEntity
  8
MAIN
 62
     5
100
AcDbVertex
100
AcDb2dVertex
 10
9.198856132108993
 20
7.10554133439928
 30
0.0
  0
VERTEX
  5
2AB
330
1DA
100
AcDbEntity
  8
MAIN
 62
     5
100
AcDbVertex
100
AcDb2dVertex
 10
9.527856132108716
 20
7.10554133439928
 30
0.0
 42
-1.000000000000003
  0
VERTEX
  5
2AC
330
1DA
100
AcDbEntity
  8
MAIN
 62
     5
100
AcDbVertex
100
AcDb2dVertex
 10
9.527856132108716
 20
7.042541334397359
 30
0.0
  0
VERTEX
  5
2AD
330
1DA
100
AcDbEntity
  8
MAIN
 62
     5
100
AcDbVertex
100
AcDb2dVertex
 10
8.838356132109218
 20
7.042541334397359
 30
0.0
 42
0.4142135623730951
  0
VERTEX
  5
2AE
330
1DA
100
AcDbEntity
  8
MAIN
 62
     5
100
AcDbVertex
100
AcDb2dVertex
 10
8.808356132108563
 20
7.012541334396704
 30
0.0
  0
VERTEX
  5
2AF
330
1DA
100
AcDbEntity
  8
MAIN
 62
     5
100
AcDbVertex
100
AcDb2dVertex
 10
8.808356132110382
 20
6.064769691935001
 30
0.0
 42
-0.4142135623730951
  0
VERTEX
  5
2B0
330
1DA
100
AcDbEntity
  8
MAIN
 62
     5
100
AcDbVertex
100
AcDb2dVertex
 10
8.758356132109291
 20
6.014769691935729
 30
0.0
  0
VERTEX
  5
2B1
330
1DA
100
AcDbEntity
  8
MAIN
 62
     5
100
AcDbVertex
100
AcDb2dVertex
 10
8.758356132109291
 20
6.014769691934819
 30
0.0
  0
VERTEX
  5
2B2
330
1DA
100
AcDbEntity
  8
MAIN
 62
     5
100
AcDbVertex
100
AcDb2dVertex
 10
8.477634570347071
 20
6.01476969193391
 30
0.0
  0
VERTEX
  5
2B3
330
1DA
100
AcDbEntity
  8
MAIN
 62
     5
100
AcDbVertex
100
AcDb2dVertex
 10
8.477634570347071
 20
6.014769691933
 30
0.0
 42
0.4142135623664355
  0
VERTEX
  5
2B4
330
1DA
100
AcDbEntity
  8
MAIN
 62
     5
100
AcDbVertex
100
AcDb2dVertex
 10
8.437634570347107
 20
5.974769691933946
 30
0.0
  0
VERTEX
  5
2B5
330
1DA
100
AcDbEntity
  8
MAIN
 62
     5
100
AcDbVertex
100
AcDb2dVertex
 10
8.437634570347107
 20
4.676847531522984
 30
0.0
 42
-1.000000000000003
  0
VERTEX
  5
2B6
330
1DA
100
AcDbEntity
  8
MAIN
 62
     5
100
AcDbVertex
100
AcDb2dVertex
 10
8.35763457034718
 20
4.676847531522984
 30
0.0
  0
VERTEX
  5
2B7
330
1DA
100
AcDbEntity
  8
MAIN
 62
     5
100
AcDbVertex
100
AcDb2dVertex
 10
8.35763457034627
 20
5.829847531524141
 30
0.0
 42
0.4142135623730951
  0
VERTEX
  5
2B8
330
1DA
100
AcDbEntity
  8
MAIN
 62
     5
100
AcDbVertex
100
AcDb2dVertex
 10
8.337634570345834
 20
5.849847531524577
 30
0.0
  0
VERTEX
  5
2B9
330
1DA
100
AcDbEntity
  8
MAIN
 62
     5
100
AcDbVertex
100
AcDb2dVertex
 10
8.127634570343978
 20
5.849847531524577
 30
0.0
 42
0.4142135623730951
  0
VERTEX
  5
2BA
330
1DA
100
AcDbEntity
  8
MAIN
 62
     5
100
AcDbVertex
100
AcDb2dVertex
 10
8.107634570343542
 20
5.829847531524141
 30
0.0
  0
VERTEX
  5
2BB
330
1DA
100
AcDbEntity
  8
MAIN
 62
     5
100
AcDbVertex
100
AcDb2dVertex
 10
8.107634570343542
 20
5.818347531522707
 30
0.0
 42
-1.000000000000003
  0
VERTEX
  5
2BC
330
1DA
100
AcDbEntity
  8
MAIN
 62
     5
100
AcDbVertex
100
AcDb2dVertex
 10
8.042014793959786
 20
5.818347531522707
 30
0.0
  0
VERTEX
  5
2BD
330
1DA
100
AcDbEntity
  8
MAIN
 62
     5
100
AcDbVertex
100
AcDb2dVertex
 10
8.042014793960696
 20
5.839847531523449
 30
0.0
 42
0.4142135623730951
  0
VERTEX
  5
2BE
330
1DA
100
AcDbEntity
  8
MAIN
 62
     5
100
AcDbVertex
100
AcDb2dVertex
 10
8.032014793960478
 20
5.849847531523668
 30
0.0
  0
VERTEX
  5
2BF
330
1DA
100
AcDbEntity
  8
MAIN
 62
     5
100
AcDbVertex
100
AcDb2dVertex
 10
7.922014793960805
 20
5.849847531523668
 30
0.0
 42
0.4142135623730951
  0
VERTEX
  5
2C0
330
1DA
100
AcDbEntity
  8
MAIN
 62
     5
100
AcDbVertex
100
AcDb2dVertex
 10
7.912014793960587
 20
5.839847531523449
 30
0.0
  0
VERTEX
  5
2C1
330
1DA
100
AcDbEntity
  8
MAIN
 62
     5
100
AcDbVertex
100
AcDb2dVertex
 10
7.912014793960587
 20
4.729847531522867
 30
0.0
 42
0.4142135623730951
  0
VERTEX
  5
2C2
330
1DA
100
AcDbEntity
  8
MAIN
 62
     5
100
AcDbVertex
100
AcDb2dVertex
 10
7.922014793960805
 20
4.719847531522649
 30
0.0
  0
VERTEX
  5
2C3
330
1DA
100
AcDbEntity
  8
MAIN
 62
     5
100
AcDbVertex
100
AcDb2dVertex
 10
8.032014793960478
 20
4.719847531522649
 30
0.0
 42
0.4142135623730951
  0
VERTEX
  5
2C4
330
1DA
100
AcDbEntity
  8
MAIN
 62
     5
100
AcDbVertex
100
AcDb2dVertex
 10
8.042014793960696
 20
4.729847531522867
 30
0.0
  0
VERTEX
  5
2C5
330
1DA
100
AcDbEntity
  8
MAIN
 62
     5
100
AcDbVertex
100
AcDb2dVertex
 10
8.042014793960696
 20
4.75134753152361
 30
0.0
 42
-1.000000000000003
  0
VERTEX
  5
2C6
330
1DA
100
AcDbEntity
  8
MAIN
 62
     5
100
AcDbVertex
100
AcDb2dVertex
 10
8.107634570342632
 20
4.75134753152361
 30
0.0
  0
VERTEX
  5
2C7
330
1DA
100
AcDbEntity
  8
MAIN
 62
     5
100
AcDbVertex
100
AcDb2dVertex
 10
8.10763457034627
 20
4.668847531524082
 30
0.0
 42
-0.4142135623897444
  0
VERTEX
  5
2C8
330
1DA
100
AcDbEntity
  8
MAIN
 62
     5
100
AcDbVertex
100
AcDb2dVertex
 10
8.075634570346117
 20
4.636847531522111
 30
0.0
  0
VERTEX
  5
2C9
330
1DA
100
AcDbEntity
  8
MAIN
 62
     5
100
AcDbVertex
100
AcDb2dVertex
 10
7.87901479396114
 20
4.636847531521201
 30
0.0
 42
-0.414213562357112
  0
VERTEX
  5
2CA
330
1DA
100
AcDbEntity
  8
MAIN
 62
     5
100
AcDbVertex
100
AcDb2dVertex
 10
7.829014793960048
 20
4.686847531523202
 30
0.0
  0
VERTEX
  5
2CB
330
1DA
100
AcDbEntity
  8
MAIN
 62
     5
100
AcDbVertex
100
AcDb2dVertex
 10
7.829014793953682
 20
6.632541334398414
 30
0.0
 42
0.4142135623814195
  0
VERTEX
  5
2CC
330
1DA
100
AcDbEntity
  8
MAIN
 62
     5
100
AcDbVertex
100
AcDb2dVertex
 10
7.797014793953529
 20
6.664541334397657
 30
0.0
  0
VERTEX
  5
2CD
330
1DA
100
AcDbEntity
  8
MAIN
 62
     5
100
AcDbVertex
100
AcDb2dVertex
 10
6.917710353684377
 20
6.664541334398567
 30
0.0
 42
0.4142135623814198
  0
VERTEX
  5
2CE
330
1DA
100
AcDbEntity
  8
MAIN
 62
     5
100
AcDbVertex
100
AcDb2dVertex
 10
6.885710353684224
 20
6.632541334397505
 30
0.0
  0
VERTEX
  5
2CF
330
1DA
100
AcDbEntity
  8
MAIN
 62
     5
100
AcDbVertex
100
AcDb2dVertex
 10
6.885568352742119
 20
6.071150671275976
 30
0.0
 42
-1.000000000000003
  0
VERTEX
  5
2D0
330
1DA
100
AcDbEntity
  8
MAIN
 62
     5
100
AcDbVertex
100
AcDb2dVertex
 10
6.822568352742017
 20
6.071150671275976
 30
0.0
  0
VERTEX
  5
2D1
330
1DA
100
AcDbEntity
  8
MAIN
 62
     5
100
AcDbVertex
100
AcDb2dVertex
 10
6.822710353684122
 20
6.603150671267943
 30
0.0
 42
0.4142135623730951
  0
VERTEX
  5
2D2
330
1DA
100
AcDbEntity
  8
MAIN
 62
     5
100
AcDbVertex
100
AcDb2dVertex
 10
6.790710353683969
 20
6.635150671268096
 30
0.0
  0
VERTEX
  5
2D3
330
1DA
100
AcDbEntity
  8
MAIN
 62
     5
100
AcDbVertex
100
AcDb2dVertex
 10
6.395757710435098
 20
6.635150671277191
 30
0.0
 42
-0.4142135623198181
  0
VERTEX
  5
2D4
330
1DA
100
AcDbEntity
  8
MAIN
 62
     5
100
AcDbVertex
100
AcDb2dVertex
 10
6.390757710435899
 20
6.640150671273662
 30
0.0
  0
VERTEX
  5
2D5
330
1DA
100
AcDbEntity
  8
MAIN
 62
     5
100
AcDbVertex
100
AcDb2dVertex
 10
6.390757710434989
 20
6.640150671273662
 30
0.0
  0
VERTEX
  5
2D6
330
1DA
100
AcDbEntity
  8
MAIN
 62
     5
100
AcDbVertex
100
AcDb2dVertex
 10
6.390757710435899
 20
6.65015067127479
 30
0.0
  0
VERTEX
  5
2D7
330
1DA
100
AcDbEntity
  8
MAIN
 62
     5
100
AcDbVertex
100
AcDb2dVertex
 10
6.390757710436808
 20
6.65015067127479
 30
0.0
 42
0.4142135623198181
  0
VERTEX
  5
2D8
330
1DA
100
AcDbEntity
  8
MAIN
 62
     5
100
AcDbVertex
100
AcDb2dVertex
 10
6.38575771043579
 20
6.655150671274899
 30
0.0
  0
VERTEX
  5
2D9
330
1DA
100
AcDbEntity
  8
MAIN
 62
     5
100
AcDbVertex
100
AcDb2dVertex
 10
6.322253940635526
 20
6.65515067127399
 30
0.0
  0
VERTEX
  5
2DA
330
1DA
100
AcDbEntity
  8
MAIN
 62
     5
100
AcDbVertex
100
AcDb2dVertex
 10
6.307253940635199
 20
6.670150671274317
 30
0.0
  0
VERTEX
  5
2DB
330
1DA
100
AcDbEntity
  8
MAIN
 62
     5
100
AcDbVertex
100
AcDb2dVertex
 10
6.292253940634871
 20
6.65515067127399
 30
0.0
  0
VERTEX
  5
2DC
330
1DA
100
AcDbEntity
  8
MAIN
 62
     5
100
AcDbVertex
100
AcDb2dVertex
 10
5.751032382429364
 20
6.655150671270352
 30
0.0
  0
VERTEX
  5
2DD
330
1DA
100
AcDbEntity
  8
MAIN
 62
     5
100
AcDbVertex
100
AcDb2dVertex
 10
5.751032382429364
 20
6.655150671270451
 30
0.0
 42
-0.2522636269745739
  0
VERTEX
  5
2DE
330
1DA
100
AcDbEntity
  8
MAIN
 62
     5
100
AcDbVertex
100
AcDb2dVertex
 10
5.734329108650473
 20
6.664150681687828
 30
0.0
  0
VERTEX
  5
2DF
330
1DA
100
AcDbEntity
  8
MAIN
 62
     5
100
AcDbVertex
100
AcDb2dVertex
 10
5.734329108650379
 20
6.664150681687766
 30
0.0
 42
0.4202229399222038
  0
VERTEX
  5
2E0
330
1DA
100
AcDbEntity
  8
MAIN
 62
     5
100
AcDbVertex
100
AcDb2dVertex
 10
5.552050002904465
 20
6.69973553559634
 30
0.0
  0
VERTEX
  5
2E1
330
1DA
100
AcDbEntity
  8
MAIN
 62
     5
100
AcDbVertex
100
AcDb2dVertex
 10
5.552050002904833
 20
6.699735535595804
 30
0.0
 42
-0.6040724509321277
  0
VERTEX
  5
2E2
330
1DA
100
AcDbEntity
  8
MAIN
 62
     5
100
AcDbVertex
100
AcDb2dVertex
 10
5.520710353685513
 20
6.71621013287768
 30
0.0
  0
VERTEX
  5
2E3
330
1DA
100
AcDbEntity
  8
MAIN
 62
     5
100
AcDbVertex
100
AcDb2dVertex
 10
5.520710353685352
 20
6.71621013287768
 30
0.0
  0
VERTEX
  5
2E4
330
1DA
100
AcDbEntity
  8
MAIN
 62
     5
100
AcDbVertex
100
AcDb2dVertex
 10
5.520710353684442
 20
7.074041334398319
 30
0.0
 42
-0.4142135623730951
  0
VERTEX
  5
2E5
330
1DA
100
AcDbEntity
  8
MAIN
 62
     5
100
AcDbVertex
100
AcDb2dVertex
 10
5.552210353685403
 20
7.10554133439928
 30
0.0
  0
VERTEX
  5
2E6
330
1DA
100
AcDbEntity
  8
MAIN
 62
     5
100
AcDbVertex
100
AcDb2dVertex
 10
9.168856132109247
 20
7.10554133439928
 30
0.0
  0
SEQEND
  5
2E7
330
1DA
100
AcDbEntity
  8
MAIN
 62
     5
  0
DIMENSION
  5
212
330
1F
100
AcDbEntity
  8
0
100
AcDbDimension
  2
*D7
 10
9.559356132109677
 20
7.553508436464067
 30
0.0
 11
7.54003324289706
 21
7.553508436464067
 31
0.0
 70
    32
  3
STANDARD
100
AcDbAlignedDimension
 13
5.520710353684442
 23
7.074041334398319
 33
0.0
 14
9.559356132109677
 24
7.074041334398319
 34
0.0
100
AcDbRotatedDimension
1001
ACAD
1000
DSTYLE
1002
{
1070
    40
1040
0.5208333333333334
1002
}
  0
DIMENSION
  5
220
330
1F
100
AcDbEntity
  8
0
100
AcDbDimension
  2
*D8
 10
5.097357986973931
 20
4.636847531521202
 30
0.0
 11
5.09735798697393
 21
5.871194432960242
 31
0.0
 70
    32
  3
STANDARD
100
AcDbAlignedDimension
 13
5.552210353685403
 23
7.10554133439928
 33
0.0
 14
7.87901479396114
 24
4.636847531521201
 34
0.0
 50
90.0
100
AcDbRotatedDimension
1001
ACAD
1000
DSTYLE
1002
{
1070
    40
1040
0.5208333333333334
1002
}
  0
TEXT
  5
22E
330
1F
100
AcDbEntity
  8
TX
100
AcDbText
 10
5.530533108014935
 20
3.694655775221147
 30
0.0
 40
0.09375
  1
SCALE : 1" = 1"
 11
5.530533108014935
 21
3.788405775221147
 31
0.0
100
AcDbText
 73
     3
  0
TEXT
  5
22F
330
1F
100
AcDbEntity
  8
0
 62
     3
100
AcDbText
 10
5.530533108014935
 20
3.97587746058323
 30
0.0
 40
0.140625
  1
2 PART LARGE INNER FRAME #1959
100
AcDbText
  0
POLYLINE
  5
230
330
1F
100
AcDbEntity
  8
0
 62
     5
100
AcDb2dPolyline
 66
     1
 10
0.0
 20
0.0
 30
0.0
 40
0.028125
 41
0.028125
  0
VERTEX
  5
2E8
330
230
100
AcDbEntity
  8
0
 62
     5
100
AcDbVertex
100
AcDb2dVertex
 10
5.436797265333893
 20
3.882141617902188
 30
0.0
  0
VERTEX
  5
2E9
330
230
100
AcDbEntity
  8
0
 62
     5
100
AcDbVertex
100
AcDb2dVertex
 10
9.768703515333893
 20
3.882141617902188
 30
0.0
  0
SEQEND
  5
2EA
330
230
100
AcDbEntity
  8
0
 62
     5
  0
ENDSEC
  0
SECTION
  2
OBJECTS
  0
DICTIONARY
  5
C
330
0
100
AcDbDictionary
  3
ACAD_GROUP
350
D
  3
ACAD_LAYOUT
350
1A
  3
ACAD_MLINESTYLE
350
17
  3
ACAD_PLOTSETTINGS
350
19
1001
ACAD
1000
TREAT_AS_HARD
1070
     0
  0
DICTIONARY
  5
235
330
1F
100
AcDbDictionary
  3
ACAD_LAYOUTSELFREF
350
236
  0
DICTIONARY
  5
233
330
1B
100
AcDbDictionary
  3
ACAD_LAYOUTSELFREF
350
234
  0
DICTIONARY
  5
D
102
{ACAD_REACTORS
330
C
102
}
330
C
100
AcDbDictionary
1001
ACAD
1000
TREAT_AS_HARD
1070
     0
  0
DICTIONARY
  5
1A
102
{ACAD_REACTORS
330
C
102
}
330
C
100
AcDbDictionary
1001
ACAD
1000
TREAT_AS_HARD
1070
     0
  0
DICTIONARY
  5
17
102
{ACAD_REACTORS
330
C
102
}
330
C
100
AcDbDictionary
  3
STANDARD
350
18
1001
ACAD
1000
TREAT_AS_HARD
1070
     0
  0
DICTIONARY
  5
19
102
{ACAD_REACTORS
330
C
102
}
330
C
100
AcDbDictionary
1001
ACAD
1000
TREAT_AS_HARD
1070
     0
  0
XRECORD
  5
236
102
{ACAD_REACTORS
330
235
102
}
330
235
100
AcDbXrecord
340
1F
  0
XRECORD
  5
234
102
{ACAD_REACTORS
330
233
102
}
330
233
100
AcDbXrecord
340
1B
  0
MLINESTYLE
  5
18
102
{ACAD_REACTORS
330
17
102
}
330
17
100
AcDbMlineStyle
  2
STANDARD
 70
     0
  3

 62
   256
 51
90.0
 52
90.0
 71
     2
 49
0.5
 62
   256
  6
BYLAYER
 49
-0.5
 62
   256
  6
BYLAYER
  0
ENDSEC
  0
EOF
